[Álbum][320] Gentle Giant - The Power And The Glory [40th Anniversary - Steven Wilson Remix] (2014) *TST*

Moderadores: Mod Filmes, Co-Mod Filmes, Poster Filmes

Regras do Fórum
Os Rips TST/TSTeam são Rips da nossa equipa de ripagem, que os alojam em servidores, para poderem sacar via HTTP e TORRENT com velocidades até 100Mb.

Agradecemos que assim que concluam os Downloads por um destes meios, os partilhem na rede eD2k.

[Álbum][320] Gentle Giant - The Power And The Glory [40th Anniversary - Steven Wilson Remix] (2014) *TST*

Mensagempor miggy » 07 ago 2014 18:08

Imagem


Source: FLAC Rip

ALINHAMENTO
1. Gentle Giant - Proclamation [06:56]
2. Gentle Giant - So Sincere [03:52]
3. Gentle Giant - Aspirations [05:21]
4. Gentle Giant - Playing the Game [06:45]
5. Gentle Giant - Cogs in Cogs [03:08]
6. Gentle Giant - No God's a Man [04:26]
7. Gentle Giant - The Face [04:13]
8. Gentle Giant - Valedictory [03:26]
9. Gentle Giant - The Power and the Glory [02:59]
10. Gentle Giant - Aspirations Instrumental Out Take [05:17]

Playing Time.........: 46:27

MusicBrainz

-CueToolsLog
Código: Selecionar todos
[CUETools log; Date: 03-08-2014 17:33:38; Version: 2.1.4]
[AccurateRip ID: 0012d0b3-0092f497-8f0ae30a] found.
Track   [  CRC   |   V2   ] Status
 01     [985c05f1|c14a0c35] (0+5/5) Accurately ripped
 02     [0c14be15|40fe3786] (0+5/5) Accurately ripped
 03     [853d26c2|27519cb1] (0+5/5) Accurately ripped
 04     [d5738e66|4e467a14] (0+5/5) Accurately ripped
 05     [f3a3ba40|86e58350] (0+5/5) Accurately ripped
 06     [125e3516|6fab40d0] (0+5/5) Accurately ripped
 07     [7531b155|4e58adc3] (0+5/5) Accurately ripped
 08     [8231c45a|c31e7958] (0+5/5) Accurately ripped
 09     [c5f63c01|83d76f91] (0+5/5) Accurately ripped
 10     [31a2d13b|e7267506] (0+4/4) Accurately ripped

Track Peak [ CRC32  ] [W/O NULL]
 --  100,0 [0578A367] [D73927A2]           
 01   99,6 [286FF128] [19904EA5]           
 02   99,4 [7EFC4B8F] [5FEBEF2E]           
 03   86,4 [E9407F1C] [14866BE9]           
 04   98,5 [8CDB69B0] [C9B99B13]           
 05  100,0 [3E0FA46E] [BC173F6F]           
 06   92,8 [0F9DF9AF] [C3F8BF40]           
 07  100,0 [EB5F7321] [50B378C4]           
 08   99,3 [0CFBE1BF] [4C511FF0]           
 09   98,9 [64209BE8] [F7AC977C]           
 10   94,5 [E3F8B645] [B4CBC9D2]           


CONTEM
Front Covers, SourceLog, Log





0http Gentle.Giant-The.Power.And.The.Glory.[40th.Anniversary-Steven.Wilson-Remix].(2014).MP3@320-TST.rar[103.98 Mb]
[103.98 Mb]
Tugashare.net - Gentle.Giant-The.Power.And.The.Glory.[40th.Anniversary-Steven.Wil....MP3@320-TST.rar  [103.98 Mb]
Aviso que perdi um disco de 1.5 Tb e todos os ficheiros cuja fonte era por mim assegurada, agora dependem unicamente de vocês

Imagem
Avatar do Utilizador
miggy
Administrador
Administrador
 
Mensagens: 28308
Registado: 27 dez 2006 21:48
Ultima Visita: 30 mar 2018 14:29
Localização: @tugashare.net
Ligado: 67d 13h 59m 36s
Enviou: 1418 vez(es)
Recebeu: 5455 vez(es)
Nacionalidade: Portuguêsa
Sofware Utilizado Para Downloads: uMule

Voltar para Música

Quem está ligado:

Utilizadores a ver este Fórum: Nenhum utilizador registado e 2 visitantes

cron