[Álbum][320] Simply Red - Simplified (2014) [Deluxe Edition] *TST*

Moderadores: Poster Filmes, Mod Filmes, Co-Mod Filmes

Regras do Fórum
Os Rips TST/TSTeam são Rips da nossa equipa de ripagem, que os alojam em servidores, para poderem sacar via HTTP e TORRENT com velocidades até 100Mb.

Agradecemos que assim que concluam os Downloads por um destes meios, os partilhem na rede eD2k.

[Álbum][320] Simply Red - Simplified (2014) [Deluxe Edition] *TST*

Mensagempor miggy » 02 nov 2014 13:17

Imagem

DESCRIÇÃO
Este álbum foi originalmente lançado em 2005, e com o término da carreira em 2010 (desde 1985), foram lançados este ano alguns dos álbums mais emblemáticos, em formato Deluxe, para dar como definitivamente encerrado o capitulo Simply Red.

TRACKLIST
CD 1: Simplified
01] Perfect Love
02] Something Got Me Started
03] Holding Back The Years
04] More
05] A Song For You
06] Your Mirror
07] Fairground
08] My Perfect Love
09] Smile
10] Sad Old Red
11] For Your Babies
12] Ev'ry Time We Say Goodbye

CD 2: Remixes & Live In Cuba
01] Perfect Love (Lazy Radio Mix)
02] Perfect Love (Love To Infinity Sunset Mix- Long Version)
03] Perfect Love (Love To Infinity Radio Mix)
04] Perfect Love (Kurtis Mantronik 12' Vocal Mix)
05] Perfect Love (Motivo Hi-Lectro Mix)
06] Perfect Love (Roger's Dirty Sanchez Mix Edit)
07] Perfect Love (Lee Gabrera's Lower East Side Dub)
08] Perfect Love
09] Something Got Me Started
10] A Song For You
11] Stars
12] It's Only Love
13] Fairground

-CueTools Log
CD1
Código: Selecionar todos
Exact Audio Copy V1.0 beta 3 from 29. August 2011

EAC extraction logfile from 15. August 2014, 4:38

Simply Red / Simplified (Deluxe Edition)

Used drive  : HL-DT-STDVD+-RW GT32N   Adapter: 0  ID: 1

Read mode               : Secure
Utilize accurate stream : Yes
Defeat audio cache      : Yes
Make use of C2 pointers : No

Read offset correction                      : 103
Overread into Lead-In and Lead-Out          : No
Fill up missing offset samples with silence : Yes
Delete leading and trailing silent blocks   : No
Null samples used in CRC calculations       : Yes
Used interface                              : Native Win32 interface for Win NT & 2000
Gap handling                                : Appended to previous track

Used output format              : User Defined Encoder
Selected bitrate                : 1024 kBit/s
Quality                         : High
Add ID3 tag                     : No
Command line compressor         : C:\Program Files (x86)\Exact Audio Copy\Flac\flac.exe
Additional command line options : -8 -V -T "ARTIST=%artist%" -T "TITLE=%title%" -T "ALBUM=%albumtitle%" -T "DATE=%year%" -T "TRACKNUMBER=%tracknr%" -T "GENRE=%genre%" -T "PERFORMER=%albuminterpret%" -T "COMPOSER=%composer%" %haslyrics%--tag-from-file=LYRICS="%lyricsfile%"%haslyrics% -T "ALBUMARTIST=%albumartist%" -T "DISCNUMBER=%cdnumber%" -T "TOTALDISCS=%totalcds%" -T "TOTALTRACKS=%numtracks%" -T "COMMENT=%comment%" %source% -o %dest%


TOC of the extracted CD

     Track |   Start  |  Length  | Start sector | End sector
    ---------------------------------------------------------
        1  |  0:00.00 |  3:13.09 |         0    |    14483   
        2  |  3:13.09 |  7:44.72 |     14484    |    49355   
        3  | 10:58.06 |  3:34.66 |     49356    |    65471   
        4  | 14:32.72 |  6:18.22 |     65472    |    93843   
        5  | 20:51.19 |  6:32.60 |     93844    |   123303   
        6  | 27:24.04 |  6:45.11 |    123304    |   153689   
        7  | 34:09.15 |  6:01.17 |    153690    |   180781   
        8  | 40:10.32 |  3:26.51 |    180782    |   196282   
        9  | 43:37.08 |  3:37.57 |    196283    |   212614   
       10  | 47:14.65 |  4:09.49 |    212615    |   231338   
       11  | 51:24.39 |  4:17.31 |    231339    |   250644   
       12  | 55:41.70 |  4:30.23 |    250645    |   270917   
       13  | 60:12.18 |  6:00.64 |    270918    |   297981   


Track  1

     Filename C:\Rips\01 - Perfect Love (Lazy Radio Mix).wav

     Pre-gap length  0:00:02.00

     Peak level 99.4 %
     Extraction speed 1.2 X
     Track quality 100.0 %
     Test CRC 8B942315
     Copy CRC 8B942315
     Track not present in AccurateRip database
     Copy OK

Track  2

     Filename C:\Rips\02 - Perfect Love (Love To Infinity Sunset Mix- Long Version).wav

     Pre-gap length  0:00:01.80

     Peak level 92.7 %
     Extraction speed 1.5 X
     Track quality 100.0 %
     Test CRC E8B53439
     Copy CRC E8B53439
     Track not present in AccurateRip database
     Copy OK

Track  3

     Filename C:\Rips\03 - Perfect Love (Love To Infinity Radio Mix).wav

     Pre-gap length  0:00:01.80

     Peak level 98.4 %
     Extraction speed 1.5 X
     Track quality 100.0 %
     Test CRC EEFF2204
     Copy CRC EEFF2204
     Track not present in AccurateRip database
     Copy OK

Track  4

     Filename C:\Rips\04 - Perfect Love (Kurtis Mantronik 12'' Vocal Mix).wav

     Pre-gap length  0:00:01.80

     Peak level 99.4 %
     Extraction speed 1.8 X
     Track quality 100.0 %
     Test CRC DE1039F5
     Copy CRC DE1039F5
     Track not present in AccurateRip database
     Copy OK

Track  5

     Filename C:\Rips\05 - Perfect Love (Motivo Hi-Lectro Mix).wav

     Pre-gap length  0:00:01.80

     Peak level 99.4 %
     Extraction speed 1.9 X
     Track quality 100.0 %
     Test CRC 34181E0C
     Copy CRC 34181E0C
     Track not present in AccurateRip database
     Copy OK

Track  6

     Filename C:\Rips\06 - Perfect Love (Roger's Dirty Sanchez Mix Edit).wav

     Pre-gap length  0:00:01.92

     Peak level 92.7 %
     Extraction speed 2.1 X
     Track quality 100.0 %
     Test CRC 54099F36
     Copy CRC 54099F36
     Track not present in AccurateRip database
     Copy OK

Track  7

     Filename C:\Rips\07 - Perfect Love (Lee Gabrera's Lower East Side Dub).wav

     Pre-gap length  0:00:01.80

     Peak level 71.6 %
     Extraction speed 2.0 X
     Track quality 99.9 %
     Test CRC 380DC985
     Copy CRC 380DC985
     Track not present in AccurateRip database
     Copy OK

Track  8

     Filename C:\Rips\08 - Perfect Love.wav

     Pre-gap length  0:00:00.48

     Peak level 99.1 %
     Extraction speed 2.2 X
     Track quality 100.0 %
     Test CRC DBFE2884
     Copy CRC DBFE2884
     Track not present in AccurateRip database
     Copy OK

Track  9

     Filename C:\Rips\09 - Something Got Me Started.wav

     Peak level 99.4 %
     Extraction speed 2.0 X
     Track quality 99.9 %
     Test CRC 2F6C9408
     Copy CRC 2F6C9408
     Track not present in AccurateRip database
     Copy OK

Track 10

     Filename C:\Rips\10 - A Song For You.wav

     Peak level 99.4 %
     Extraction speed 2.1 X
     Track quality 99.9 %
     Test CRC F85B0A82
     Copy CRC F85B0A82
     Track not present in AccurateRip database
     Copy OK

Track 11

     Filename C:\Rips\11 - Stars.wav

     Peak level 99.4 %
     Extraction speed 2.5 X
     Track quality 100.0 %
     Test CRC B5AF8A07
     Copy CRC B5AF8A07
     Track not present in AccurateRip database
     Copy OK

Track 12

     Filename C:\Rips\12 - It's Only Love.wav

     Peak level 99.4 %
     Extraction speed 2.5 X
     Track quality 100.0 %
     Test CRC 10EBC501
     Copy CRC 10EBC501
     Track not present in AccurateRip database
     Copy OK

Track 13

     Filename C:\Rips\13 - Fairground.wav

     Peak level 99.4 %
     Extraction speed 2.5 X
     Track quality 99.9 %
     Test CRC 6098203E
     Copy CRC 6098203E
     Track not present in AccurateRip database
     Copy OK


None of the tracks are present in the AccurateRip database

No errors occurred

End of status report

==== Log checksum E86AB7A33C325A2C89D0D6F2F878084BEE387862B4BB17278F0CF2D41F8FB7D8 ====

CD2
Código: Selecionar todos
Exact Audio Copy V1.0 beta 3 from 29. August 2011

EAC extraction logfile from 15. August 2014, 4:38

Simply Red / Simplified (Deluxe Edition)

Used drive  : HL-DT-STDVD+-RW GT32N   Adapter: 0  ID: 1

Read mode               : Secure
Utilize accurate stream : Yes
Defeat audio cache      : Yes
Make use of C2 pointers : No

Read offset correction                      : 103
Overread into Lead-In and Lead-Out          : No
Fill up missing offset samples with silence : Yes
Delete leading and trailing silent blocks   : No
Null samples used in CRC calculations       : Yes
Used interface                              : Native Win32 interface for Win NT & 2000
Gap handling                                : Appended to previous track

Used output format              : User Defined Encoder
Selected bitrate                : 1024 kBit/s
Quality                         : High
Add ID3 tag                     : No
Command line compressor         : C:\Program Files (x86)\Exact Audio Copy\Flac\flac.exe
Additional command line options : -8 -V -T "ARTIST=%artist%" -T "TITLE=%title%" -T "ALBUM=%albumtitle%" -T "DATE=%year%" -T "TRACKNUMBER=%tracknr%" -T "GENRE=%genre%" -T "PERFORMER=%albuminterpret%" -T "COMPOSER=%composer%" %haslyrics%--tag-from-file=LYRICS="%lyricsfile%"%haslyrics% -T "ALBUMARTIST=%albumartist%" -T "DISCNUMBER=%cdnumber%" -T "TOTALDISCS=%totalcds%" -T "TOTALTRACKS=%numtracks%" -T "COMMENT=%comment%" %source% -o %dest%


TOC of the extracted CD

     Track |   Start  |  Length  | Start sector | End sector
    ---------------------------------------------------------
        1  |  0:00.00 |  3:13.09 |         0    |    14483   
        2  |  3:13.09 |  7:44.72 |     14484    |    49355   
        3  | 10:58.06 |  3:34.66 |     49356    |    65471   
        4  | 14:32.72 |  6:18.22 |     65472    |    93843   
        5  | 20:51.19 |  6:32.60 |     93844    |   123303   
        6  | 27:24.04 |  6:45.11 |    123304    |   153689   
        7  | 34:09.15 |  6:01.17 |    153690    |   180781   
        8  | 40:10.32 |  3:26.51 |    180782    |   196282   
        9  | 43:37.08 |  3:37.57 |    196283    |   212614   
       10  | 47:14.65 |  4:09.49 |    212615    |   231338   
       11  | 51:24.39 |  4:17.31 |    231339    |   250644   
       12  | 55:41.70 |  4:30.23 |    250645    |   270917   
       13  | 60:12.18 |  6:00.64 |    270918    |   297981   


Track  1

     Filename C:\Rips\01 - Perfect Love (Lazy Radio Mix).wav

     Pre-gap length  0:00:02.00

     Peak level 99.4 %
     Extraction speed 1.2 X
     Track quality 100.0 %
     Test CRC 8B942315
     Copy CRC 8B942315
     Track not present in AccurateRip database
     Copy OK

Track  2

     Filename C:\Rips\02 - Perfect Love (Love To Infinity Sunset Mix- Long Version).wav

     Pre-gap length  0:00:01.80

     Peak level 92.7 %
     Extraction speed 1.5 X
     Track quality 100.0 %
     Test CRC E8B53439
     Copy CRC E8B53439
     Track not present in AccurateRip database
     Copy OK

Track  3

     Filename C:\Rips\03 - Perfect Love (Love To Infinity Radio Mix).wav

     Pre-gap length  0:00:01.80

     Peak level 98.4 %
     Extraction speed 1.5 X
     Track quality 100.0 %
     Test CRC EEFF2204
     Copy CRC EEFF2204
     Track not present in AccurateRip database
     Copy OK

Track  4

     Filename C:\Rips\04 - Perfect Love (Kurtis Mantronik 12'' Vocal Mix).wav

     Pre-gap length  0:00:01.80

     Peak level 99.4 %
     Extraction speed 1.8 X
     Track quality 100.0 %
     Test CRC DE1039F5
     Copy CRC DE1039F5
     Track not present in AccurateRip database
     Copy OK

Track  5

     Filename C:\Rips\05 - Perfect Love (Motivo Hi-Lectro Mix).wav

     Pre-gap length  0:00:01.80

     Peak level 99.4 %
     Extraction speed 1.9 X
     Track quality 100.0 %
     Test CRC 34181E0C
     Copy CRC 34181E0C
     Track not present in AccurateRip database
     Copy OK

Track  6

     Filename C:\Rips\06 - Perfect Love (Roger's Dirty Sanchez Mix Edit).wav

     Pre-gap length  0:00:01.92

     Peak level 92.7 %
     Extraction speed 2.1 X
     Track quality 100.0 %
     Test CRC 54099F36
     Copy CRC 54099F36
     Track not present in AccurateRip database
     Copy OK

Track  7

     Filename C:\Rips\07 - Perfect Love (Lee Gabrera's Lower East Side Dub).wav

     Pre-gap length  0:00:01.80

     Peak level 71.6 %
     Extraction speed 2.0 X
     Track quality 99.9 %
     Test CRC 380DC985
     Copy CRC 380DC985
     Track not present in AccurateRip database
     Copy OK

Track  8

     Filename C:\Rips\08 - Perfect Love.wav

     Pre-gap length  0:00:00.48

     Peak level 99.1 %
     Extraction speed 2.2 X
     Track quality 100.0 %
     Test CRC DBFE2884
     Copy CRC DBFE2884
     Track not present in AccurateRip database
     Copy OK

Track  9

     Filename C:\Rips\09 - Something Got Me Started.wav

     Peak level 99.4 %
     Extraction speed 2.0 X
     Track quality 99.9 %
     Test CRC 2F6C9408
     Copy CRC 2F6C9408
     Track not present in AccurateRip database
     Copy OK

Track 10

     Filename C:\Rips\10 - A Song For You.wav

     Peak level 99.4 %
     Extraction speed 2.1 X
     Track quality 99.9 %
     Test CRC F85B0A82
     Copy CRC F85B0A82
     Track not present in AccurateRip database
     Copy OK

Track 11

     Filename C:\Rips\11 - Stars.wav

     Peak level 99.4 %
     Extraction speed 2.5 X
     Track quality 100.0 %
     Test CRC B5AF8A07
     Copy CRC B5AF8A07
     Track not present in AccurateRip database
     Copy OK

Track 12

     Filename C:\Rips\12 - It's Only Love.wav

     Peak level 99.4 %
     Extraction speed 2.5 X
     Track quality 100.0 %
     Test CRC 10EBC501
     Copy CRC 10EBC501
     Track not present in AccurateRip database
     Copy OK

Track 13

     Filename C:\Rips\13 - Fairground.wav

     Peak level 99.4 %
     Extraction speed 2.5 X
     Track quality 99.9 %
     Test CRC 6098203E
     Copy CRC 6098203E
     Track not present in AccurateRip database
     Copy OK


None of the tracks are present in the AccurateRip database

No errors occurred

End of status report

==== Log checksum E86AB7A33C325A2C89D0D6F2F878084BEE387862B4BB17278F0CF2D41F8FB7D8 ====


INFO



CONTEM
SourceLog, Log, Covers, Front



0http Simply.Red-Simplified.(2014).[Deluxe.Edition].MP3@320-TST.rar[265.31 Mb]
[265.31 Mb]
Tugashare.net - Simply.Red-Simplified.(2014).[Deluxe.Edition].MP3@320-TST.rar  [265.31 Mb]
Aviso que perdi um disco de 1.5 Tb e todos os ficheiros cuja fonte era por mim assegurada, agora dependem unicamente de vocês

Imagem
Avatar do Utilizador
miggy
Administrador
Administrador
 
Mensagens: 28307
Registado: 27 dez 2006 21:48
Ultima Visita: 30 mar 2018 14:29
Localização: @tugashare.net
Enviou: 1418 vez(es)
Recebeu: 5465 vez(es)
Ligado: 67d 14h 21m 10s
Enviou: 1418 vez(es)
Recebeu: 5465 vez(es)
Nacionalidade: Portuguêsa
Sofware Utilizado Para Downloads: uMule

Re: [Álbum][320] Simply Red - Simplified (2014) [Deluxe Edition] *TST*

Mensagempor JonnyC » 02 nov 2014 16:09

Bom cd.

Ty
Avatar do Utilizador
JonnyC
Membro VIP Tugashare
 
Mensagens: 48
Registado: 02 out 2014 09:10
Ultima Visita: 15 fev 2017 19:34
Enviou: 33 vez(es)
Recebeu: 2 vez(es)
Ligado: 6h 59m
Enviou: 33 vez(es)
Recebeu: 2 vez(es)
Nacionalidade: Portuguesa
Sofware Utilizado Para Downloads: Utorrent

Re: [Álbum][320] Simply Red - Simplified (2014) [Deluxe Edition] *TST*

Mensagempor miggy » 03 nov 2014 20:51

Yep.
Para mim, e embora já nao existam, a melhor banda do mundo.

Conheci-os em 91, e desde ai, tenho-os em todo o lado.
Tenho no carro uma pen com todos os albuns, inluindo bootlegs, e tenho o palpite que qualquer dia a pen rompe-se.
Aviso que perdi um disco de 1.5 Tb e todos os ficheiros cuja fonte era por mim assegurada, agora dependem unicamente de vocês

Imagem
Avatar do Utilizador
miggy
Administrador
Administrador
 
Mensagens: 28307
Registado: 27 dez 2006 21:48
Ultima Visita: 30 mar 2018 14:29
Localização: @tugashare.net
Enviou: 1418 vez(es)
Recebeu: 5465 vez(es)
Ligado: 67d 14h 21m 10s
Enviou: 1418 vez(es)
Recebeu: 5465 vez(es)
Nacionalidade: Portuguêsa
Sofware Utilizado Para Downloads: uMule

Re: [Álbum][320] Simply Red - Simplified (2014) [Deluxe Edition] *TST*

Mensagempor asmunnier » 14 nov 2014 15:57

1Br1 $S*
Obrigado...
1Br1 $S*
Eu ainda acredito
Num futuro mais bonito
Que o novo é bem vindo
E o amor é infinito
Avatar do Utilizador
asmunnier
Membro VIP Tugashare
 
Mensagens: 400
Registado: 04 ago 2011 13:11
Ultima Visita: 22 nov 2017 13:16
Localização: Rio de Janeiro, Brasil
Enviou: 0 vez
Recebeu: 7 vez(es)
Ligado: 2d 6h 8m 46s
Enviou: 0 vez
Recebeu: 7 vez(es)

Re: [Álbum][320] Simply Red - Simplified (2014) [Deluxe Edition] *TST*

Mensagempor miggy » 14 nov 2014 19:08

Ora essa!
Aviso que perdi um disco de 1.5 Tb e todos os ficheiros cuja fonte era por mim assegurada, agora dependem unicamente de vocês

Imagem
Avatar do Utilizador
miggy
Administrador
Administrador
 
Mensagens: 28307
Registado: 27 dez 2006 21:48
Ultima Visita: 30 mar 2018 14:29
Localização: @tugashare.net
Enviou: 1418 vez(es)
Recebeu: 5465 vez(es)
Ligado: 67d 14h 21m 10s
Enviou: 1418 vez(es)
Recebeu: 5465 vez(es)
Nacionalidade: Portuguêsa
Sofware Utilizado Para Downloads: uMule


Voltar para Música

Quem está ligado:

Utilizadores a ver este Fórum: Nenhum utilizador registado e 3 visitantes

cron