[Álbum][320] 5 Seconds Of Summer - 5 Seconds Of Summer (2014) *TST*

Moderadores: Co-Mod Filmes, Poster Filmes, Mod Filmes

Regras do Fórum
Os Rips TST/TSTeam são Rips da nossa equipa de ripagem, que os alojam em servidores, para poderem sacar via HTTP e TORRENT com velocidades até 100Mb.

Agradecemos que assim que concluam os Downloads por um destes meios, os partilhem na rede eD2k.

[Álbum][320] 5 Seconds Of Summer - 5 Seconds Of Summer (2014) *TST*

Mensagempor miggy » 29 ago 2014 17:10

Imagem

INFO
Source: FLAC Rip
Length: 39:31
Type: Album
Status: Official
Language: English

TRACKLIST
1 She Looks So Perfect 3:23
2 Don't Stop 2:50
3 Good Girls 3:27
4 Kiss Me Kiss Me 3:24
5 18 3:09
6 Everything I Didn't Say 3:00
7 Beside You 3:40
8 End Up Here 3:02
9 Long Way Home 3:19
10 Heartbreak Girl 3:18
11 English Love Affair 3:01
12 Amnesia 3:58

-LOG-
Código: Selecionar todos
CUERipper v2.1.4 Copyright (C) 2008-12 Grigory Chudov

EAC extraction logfile from 24. August 2014, 20:05

5 Seconds of Summer / 5 Seconds of Summer

Used drive  : DTSOFT BDROM   Adapter: 1  ID: 0

Read mode               : Secure
Utilize accurate stream : Yes
Defeat audio cache      : Yes
Make use of C2 pointers : No

Read offset correction                      : 0
Overread into Lead-In and Lead-Out          : No
Fill up missing offset samples with silence : Yes
Delete leading and trailing silent blocks   : No
Null samples used in CRC calculations       : Yes
Used interface                              : Native Win32 interface for Win NT & 2000
Gap handling                                : Appended to previous track

Used output format : Internal WAV Routines
Sample format      : 44.100 Hz; 16 Bit; Stereo


TOC of the extracted CD

     Track |   Start  |  Length  | Start sector | End sector
    ---------------------------------------------------------
        1  |  0:00.00 |  3:24.12 |         0    |    15311   
        2  |  3:24.12 |  2:51.07 |     15312    |    28143   
        3  |  6:15.19 |  3:26.34 |     28144    |    43627   
        4  |  9:41.53 |  3:24.13 |     43628    |    58940   
        5  | 13:05.66 |  3:10.14 |     58941    |    73204   
        6  | 16:16.05 |  3:00.61 |     73205    |    86765   
        7  | 19:16.66 |  3:40.52 |     86766    |   103317   
        8  | 22:57.43 |  3:02.55 |    103318    |   117022   
        9  | 26:00.23 |  3:19.12 |    117023    |   131959   
       10  | 29:19.35 |  3:20.66 |    131960    |   147025   
       11  | 32:40.26 |  3:03.09 |    147026    |   160759   
       12  | 35:43.35 |  3:59.44 |    160760    |   178728   


Track  1

     Filename C:\Users\TugaShare\Music\5 Seconds of Summer\2014 - 5 Seconds of Summer\01. She Looks So Perfect.wav

     Pre-gap length  0:00:02.00

     Peak level 93.8 %
     Track quality 100.0 %
     Copy CRC 0491E012
     Accurately ripped (confidence 1)  [80DCAF80]
     Copy OK

Track  2

     Filename C:\Users\TugaShare\Music\5 Seconds of Summer\2014 - 5 Seconds of Summer\02. Don't Stop.wav

     Peak level 94.4 %
     Track quality 100.0 %
     Copy CRC 6A5EB5A1
     Accurately ripped (confidence 1)  [2792F586]
     Copy OK

Track  3

     Filename C:\Users\TugaShare\Music\5 Seconds of Summer\2014 - 5 Seconds of Summer\03. Good Girls.wav

     Peak level 98.8 %
     Track quality 100.0 %
     Copy CRC 5A4307DD
     Accurately ripped (confidence 1)  [E95E1899]
     Copy OK

Track  4

     Filename C:\Users\TugaShare\Music\5 Seconds of Summer\2014 - 5 Seconds of Summer\04. Kiss Me Kiss Me.wav

     Peak level 98.8 %
     Track quality 100.0 %
     Copy CRC BA99299B
     Accurately ripped (confidence 1)  [57134895]
     Copy OK

Track  5

     Filename C:\Users\TugaShare\Music\5 Seconds of Summer\2014 - 5 Seconds of Summer\05. 18.wav

     Peak level 98.8 %
     Track quality 100.0 %
     Copy CRC 08CEA898
     Accurately ripped (confidence 1)  [BE4936D9]
     Copy OK

Track  6

     Filename C:\Users\TugaShare\Music\5 Seconds of Summer\2014 - 5 Seconds of Summer\06. Everything I Didn't Say.wav

     Peak level 98.8 %
     Track quality 100.0 %
     Copy CRC 1E4E956F
     Accurately ripped (confidence 1)  [16344E8D]
     Copy OK

Track  7

     Filename C:\Users\TugaShare\Music\5 Seconds of Summer\2014 - 5 Seconds of Summer\07. Beside You.wav

     Peak level 98.8 %
     Track quality 100.0 %
     Copy CRC 64791687
     Accurately ripped (confidence 1)  [3AABA4B0]
     Copy OK

Track  8

     Filename C:\Users\TugaShare\Music\5 Seconds of Summer\2014 - 5 Seconds of Summer\08. End Up Here.wav

     Peak level 98.8 %
     Track quality 100.0 %
     Copy CRC 5B3F6BE3
     Accurately ripped (confidence 1)  [3B0E1C65]
     Copy OK

Track  9

     Filename C:\Users\TugaShare\Music\5 Seconds of Summer\2014 - 5 Seconds of Summer\09. Long Way Home.wav

     Peak level 98.8 %
     Track quality 100.0 %
     Copy CRC 4882505A
     Accurately ripped (confidence 1)  [2CE62ACB]
     Copy OK

Track 10

     Filename C:\Users\TugaShare\Music\5 Seconds of Summer\2014 - 5 Seconds of Summer\10. Heartbreak Girl.wav

     Peak level 98.8 %
     Track quality 100.0 %
     Copy CRC 9E07FA43
     Accurately ripped (confidence 1)  [ECA2DF16]
     Copy OK

Track 11

     Filename C:\Users\TugaShare\Music\5 Seconds of Summer\2014 - 5 Seconds of Summer\11. English Love Affair.wav

     Peak level 98.8 %
     Track quality 100.0 %
     Copy CRC 3AC946C5
     Accurately ripped (confidence 1)  [F7DADFC8]
     Copy OK

Track 12

     Filename C:\Users\TugaShare\Music\5 Seconds of Summer\2014 - 5 Seconds of Summer\12. Amnesia.wav

     Peak level 94.3 %
     Track quality 100.0 %
     Copy CRC AA57A49D
     Accurately ripped (confidence 1)  [0080788D]
     Copy OK


All tracks accurately ripped

No errors occurred

End of status report


MusicBrinz

CONTEM
Source Log, Log, -Cue



0http 5.Seconds.Of.Summer-5.Seconds.Of.Summer.(2014).MP3@320-TST.rar[89.54 Mb]
[89.54 Mb]
Tugashare.net - 5.Seconds.Of.Summer-5.Seconds.Of.Summer.(2014).MP3@320-TST.rar  [89.54 Mb]
Aviso que perdi um disco de 1.5 Tb e todos os ficheiros cuja fonte era por mim assegurada, agora dependem unicamente de vocês

Imagem
Avatar do Utilizador
miggy
Administrador
Administrador
 
Mensagens: 28307
Registado: 27 dez 2006 21:48
Ultima Visita: 30 mar 2018 14:29
Localização: @tugashare.net
Enviou: 1418 vez(es)
Recebeu: 5466 vez(es)
Ligado: 67d 14h 21m 10s
Enviou: 1418 vez(es)
Recebeu: 5466 vez(es)
Nacionalidade: Portuguêsa
Sofware Utilizado Para Downloads: uMule

Voltar para Música

Quem está ligado:

Utilizadores a ver este Fórum: Nenhum utilizador registado e 2 visitantes

cron